<?xml version="1.0" standalone="no"?>
<!DOCTYPE svg PUBLIC "-//W3C//DTD SVG 1.1//EN" "http://www.w3.org/Graphics/SVG/1.1/DTD/svg11.dtd" >
<svg xmlns="http://www.w3.org/2000/svg">
<metadata>Generated by IcoMoon</metadata>
<defs>
<font id="icofont-zippels" horiz-adv-x="1024">
<font-face units-per-em="1024" ascent="960" descent="-64" />
<missing-glyph horiz-adv-x="1024" />
<glyph unicode="&#x20;" horiz-adv-x="512" d="" />
<glyph unicode="&#xe900;" glyph-name="arrow-down" d="M469.35 50.634v901.119h69.075v-883.328l239.075 267.526 49.948-49.165-332.514-359.033-298.381 359.033 49.948 49.165 222.85-285.317z" />
<glyph unicode="&#xe901;" glyph-name="arrow-left" d="M122.881 482.402h901.119v-69.075h-883.328l267.526-239.075-49.165-49.948-359.033 332.514 359.033 298.381 49.165-49.948-285.317-222.85z" />
<glyph unicode="&#xe902;" glyph-name="arrow-right" d="M901.119 397.103h-901.119v69.075h883.328l-267.526 239.075 49.165 49.948 359.033-332.514-359.033-298.381-49.165 49.948 285.317 222.85z" />
<glyph unicode="&#xe903;" glyph-name="arrow-up" d="M554.65 828.872v-901.119h-69.075v883.328l-239.075-267.526-49.948 49.165 332.514 359.033 298.381-359.033-49.948-49.165-222.85 285.317z" />
<glyph unicode="&#xe904;" glyph-name="calendar-future" d="M763.527 199.314v-7.147c0-59.33-28.233-109.881-110.034-109.881h-543.46c-79.38 0-110.033 56.153-110.033 109.881v465.107c0 47.015 38.477 109.881 110.033 109.881h46.381c12.315 0.174 23.554-10.107 23.554-35.42s-11.239-35.593-23.554-35.419h-46.381c-22.013 0-39.096-17.059-39.096-39.042v-131.675h621.652v131.675c-0.109 21.983-17.084 39.042-39.096 39.042h-46.381c-12.316-0.174-23.555 8.281-23.555 35.419s11.239 35.593 23.555 35.42h46.381c70.724 0 110.034-62.866 110.034-109.881v-223.903h-70.937v45.668h-621.652v-286.872c0-21.983 17.082-39.042 39.096-39.042h543.46c22.013 0 39.096 17.059 39.096 39.042v7.147h70.937zM238.964 813.714c12.874 0 23.312-10.423 23.312-23.28v-113.761c27.032-9.687 46.624-35.574 46.624-65.716 0-38.295-31.588-69.839-69.936-69.839s-69.936 31.544-69.936 69.839c0 30.142 19.592 56.029 46.624 65.716v113.761c0 12.857 10.437 23.28 23.312 23.28zM530.541 813.714c12.874 0 23.312-10.423 23.312-23.28v-113.761c27.032-9.687 46.624-35.574 46.624-65.716 0-38.295-31.588-69.839-69.936-69.839s-69.936 31.544-69.936 69.839c0 30.142 19.592 56.029 46.624 65.716v113.761c0 12.857 10.437 23.28 23.312 23.28zM319.707 767.155h124.112c12.875 0 23.312-14.95 23.312-35.42s-10.437-35.419-23.312-35.419h-124.112c-12.875 0-23.312 13.16-23.312 35.419s10.437 35.42 23.312 35.42zM237.133 634.237c-13.151 0-23.312-10.147-23.312-23.28s10.161-23.28 23.312-23.28c13.151 0 23.312 10.147 23.312 23.28s-10.161 23.28-23.312 23.28zM530.541 634.237c-13.151 0-23.312-10.147-23.312-23.28s10.161-23.28 23.312-23.28c13.151 0 23.312 10.147 23.312 23.28s-10.161 23.28-23.312 23.28zM875.784 510.315l139.868-169.834c8.327-12.38 9.105-25.285 0-38.088l-139.868-169.834c-9.971-12.18-29.993-14.793-42.306-4.217-11.942 10.255-14.186 30.128-4.212 42.305l99.594 120.82h-401.516c-16.553 0-29.972 13.418-29.972 29.971s13.419 29.971 29.972 29.971h401.516l-99.594 120.82c-9.974 12.178-7.967 32.333 4.212 42.305s30.735 8.735 42.306-4.218z" />
<glyph unicode="&#xe905;" glyph-name="calendar-past" d="M255.561 199.314v-7.147c0-59.33 28.35-109.881 110.489-109.881h545.707c79.708 0 110.488 56.153 110.488 109.881v465.107c0 47.015-38.636 109.881-110.488 109.881h-46.573c-12.366 0.174-23.652-10.107-23.652-35.42s11.286-35.593 23.652-35.419h46.573c22.105 0 39.257-17.059 39.257-39.042v-131.675h-624.222v131.675c0.109 21.983 17.154 39.042 39.258 39.042h46.572c12.367-0.174 23.653 8.281 23.653 35.419s-11.286 35.593-23.653 35.42h-46.572c-71.017 0-110.489-62.866-110.489-109.881v-223.903h71.231v45.668h624.222v-286.872c0-21.983-17.153-39.042-39.257-39.042h-545.707c-22.104 0-39.258 17.059-39.258 39.042v7.147h-71.231zM782.292 813.714c-12.928 0-23.408-10.423-23.408-23.28v-113.761c-27.144-9.687-46.817-35.574-46.817-65.716 0-38.295 31.718-69.839 70.225-69.839s70.225 31.544 70.225 69.839c0 30.142-19.673 56.029-46.817 65.716v113.761c0 12.857-10.48 23.28-23.408 23.28zM489.511 813.714c-12.928 0-23.408-10.423-23.408-23.28v-113.761c-27.144-9.687-46.817-35.574-46.817-65.716 0-38.295 31.718-69.839 70.225-69.839s70.225 31.544 70.225 69.839c0 30.142-19.673 56.029-46.817 65.716v113.761c0 12.857-10.48 23.28-23.408 23.28zM701.215 767.155h-124.625c-12.928 0-23.408-14.95-23.408-35.42s10.48-35.419 23.408-35.419h124.625c12.928 0 23.408 13.16 23.408 35.419s-10.48 35.42-23.408 35.42zM784.131 634.237c13.205 0 23.408-10.147 23.408-23.28s-10.203-23.28-23.408-23.28c-13.205 0-23.408 10.147-23.408 23.28s10.203 23.28 23.408 23.28zM489.511 634.237c13.205 0 23.408-10.147 23.408-23.28s-10.203-23.28-23.408-23.28c-13.205 0-23.408 10.147-23.408 23.28s10.203 23.28 23.408 23.28zM142.587 510.039l-136.217-174.165c-8.11-12.696-8.867-25.93 0-39.059l136.217-174.164c9.711-12.491 29.21-15.17 41.202-4.324 11.63 10.516 13.816 30.896 4.102 43.383l-96.994 123.9h391.036c16.121 0 29.189 13.76 29.189 30.735s-13.069 30.735-29.189 30.735h-391.036l96.994 123.9c9.714 12.488 7.759 33.158-4.102 43.384s-29.933 8.958-41.202-4.325z" />
<glyph unicode="&#xe906;" glyph-name="email" d="M347.715 893.912c-3.199-0.411-6.263-1.546-8.958-3.318l-329.134-212.345c-6.044-3.948-9.669-10.697-9.622-17.917v-424.689c0.001-11.727 9.508-21.233 21.234-21.234h490.383c15.605-119.693 118.339-212.345 242.206-212.345 53.407 0 103.109 17.273 143.333 46.45 6.165 4.445 22.664 19.888 13.635 36.657s-32.355 19.651-38.519 15.204c-33.249-24.117-74.147-38.487-118.449-38.487-111.662 0-184.372 72.71-184.372 184.372s72.71 190.157 184.372 190.157c111.663 0 190.157-72.71 190.157-184.372 0-19.123-6.806-56.372-39.194-57.731-28.215-1.184-49.624 18.441-49.624 44.979v91.905c0.55 11.727-8.512 21.68-20.239 22.23s-27.465-2.727-28.015-14.454c-15.181 12.014-33.593 25.029-54.082 25.029-53.765 0-106.13-60.915-106.13-117.742s52.365-117.742 106.13-117.742c31.319 0 63.752 22.709 80.769 47.922 18.408-22.253 41.079-30.38 71.19-30.38 27.478 0 52.232 10.683 68.68 29.197s24.552 43.578 24.552 71.003c0 134.615-109.582 244.196-244.196 244.196-18.229 0-35.985-2.163-53.086-5.972v175.848c0.047 7.219-3.578 13.968-9.622 17.917l-329.134 212.345c-3.657 2.334-7.941 3.492-12.276 3.318-0.663 0.031-1.328 0.031-1.991 0zM350.369 823.99l269.497-165.648-269.497-167.783-269.497 167.783 269.497 165.648zM65.609 594.724l273.479-164.652c6.899-4.325 15.663-4.325 22.562 0l285.049 176.222v-135.412c-84.099-35.942-132.512-94.821-136.739-190.863h-444.35v314.706zM752.829 309.964c27.154 0 52.091-26.711 52.091-63.703s-24.936-63.703-52.091-63.703-52.091 26.712-52.091 63.703c0 36.993 24.936 63.703 52.091 63.703z" />
<glyph unicode="&#xe907;" glyph-name="position" d="M504.444 132.729c10.845 0 20.934 5.58 26.703 14.755 23.078 36.698 225.513 362.372 225.513 489.679 0 139.066-113.151 252.217-252.217 252.217s-252.217-113.151-252.217-252.217c0-127.306 202.435-452.981 225.513-489.679 5.769-9.174 15.858-14.755 26.703-14.755zM504.444 826.325c104.323 0 189.163-84.839 189.163-189.163 0-80.867-119.078-295.976-189.163-412.595-70.085 116.619-189.163 331.728-189.163 412.595 0 104.323 84.839 189.163 189.163 189.163zM630.552 637.163c0 69.549-56.56 126.108-126.108 126.108s-126.108-56.56-126.108-126.108c0-69.549 56.56-126.108 126.108-126.108s126.108 56.56 126.108 126.108zM441.39 637.163c0 34.774 28.28 63.054 63.054 63.054s63.054-28.28 63.054-63.054c0-34.774-28.28-63.054-63.054-63.054s-63.054 28.28-63.054 63.054zM1004.937 22.889c-5.58-10.057-16.142-16.268-27.586-16.268h-945.813c-11.476 0-22.006 6.211-27.586 16.268-5.549 9.994-5.233 22.258 0.82 32l157.635 252.217c5.801 9.174 15.89 14.786 26.767 14.786h126.108c17.403 0 31.527-14.093 31.527-31.527s-14.124-31.527-31.527-31.527h-108.642l-118.227-189.163h832.032l-118.227 189.163h-108.611c-17.434 0-31.527 14.093-31.527 31.527s14.093 31.527 31.527 31.527h126.108c10.877 0 20.966-5.612 26.735-14.818l157.635-252.217c6.085-9.71 6.4-21.974 0.851-31.968z" />
<glyph unicode="&#xe908;" glyph-name="clock" d="M928.352 401.455h-16.452c-25.706 0-46.545 20.839-46.545 46.545s20.839 46.545 46.545 46.545h16.452c-21.464 194.17-175.637 348.343-369.807 369.807v-16.061c0-25.706-20.839-46.545-46.545-46.545s-46.545 20.839-46.545 46.545v16.061c-194.17-21.464-348.343-175.637-369.807-369.807h15.484c25.706 0 46.545-20.839 46.545-46.545s-20.839-46.545-46.545-46.545h-15.484c21.464-194.17 175.637-348.343 369.807-369.807v16.397c0 25.706 20.839 46.545 46.545 46.545s46.545-20.839 46.545-46.545v-16.397c194.17 21.464 348.343 175.637 369.807 369.807zM663.919 315.526c15.441-20.552 11.299-49.73-9.253-65.172s-49.73-11.299-65.172 9.253l-124.040 165.091v243.219c0 25.706 20.839 46.545 46.545 46.545s46.545-20.839 46.545-46.545v-212.144l105.374-140.247zM512-64c-282.77 0-512 229.23-512 512s229.23 512 512 512c282.77 0 512-229.23 512-512s-229.23-512-512-512z" />
<glyph unicode="&#xe909;" glyph-name="navigation" d="M0 823.467h1024v-68.267h-1024v68.267zM0 482.133h1024v-68.267h-1024v68.267zM0 140.8h1024v-68.267h-1024v68.267z" />
<glyph unicode="&#xe90a;" glyph-name="close" d="M458.105 448l-458.105 458.105 53.895 53.895 458.105-458.105 458.105 458.105 53.895-53.895-458.105-458.105 458.105-458.105-53.895-53.895-458.105 458.105-458.105-458.105-53.895 53.895 458.105 458.105z" />
<glyph unicode="&#xe90b;" glyph-name="document" d="M137.389 960c-19.686-0.138-34.868-19.672-34.989-34.909v-954.182c0.002-18.277 16.67-34.907 34.989-34.909h723.098c18.319 0.002 34.986 16.632 34.989 34.909v674.75c0 9.147-3.733 18.248-10.205 24.727l-279.909 279.432c-6.495 6.457-15.615 10.204-24.784 10.182h-443.189zM172.377 890.182h349.886v-267.848c0.002-18.278 16.67-34.907 34.989-34.909h268.246v-581.606h-653.121v884.364zM592.241 862.084l202.715-204.842h-202.715v204.842z" />
<glyph unicode="&#xe90c;" glyph-name="magnifier" d="M1006.507 37.973l-239.002 239.002c53.828 71.441 85.828 160.222 85.828 256.358 0 235.264-191.403 426.667-426.667 426.667s-426.667-191.403-426.667-426.667c0-235.264 191.403-426.667 426.667-426.667 96.137 0 184.934 31.983 256.358 85.828l239.002-239.002c11.674-11.657 26.948-17.493 42.24-17.493s30.583 5.837 42.24 17.493c23.33 23.347 23.33 61.133 0 84.48zM426.667 192c-188.211 0-341.333 153.139-341.333 341.333 0 188.211 153.122 341.333 341.333 341.333 188.194 0 341.333-153.122 341.333-341.333 0-188.194-153.139-341.333-341.333-341.333z" />
<glyph unicode="&#xe90d;" glyph-name="play" d="M131.844 885.692v-878.637l723.176 439.319-723.176 439.319zM93.918 953.107l834.15-506.734-834.15-506.734v1013.467z" />
<glyph unicode="&#xe90e;" glyph-name="house" d="M0 451.728h136.678v-434.885h273.357v323.058h198.805v-323.058h273.357v434.885h136.678l-509.437 427.43z" />
<glyph unicode="&#xe90f;" glyph-name="person" d="M631.556 512.587c64.587 44.624 108.037 118.606 108.037 203.156 0 135.046-110.385 244.257-244.257 244.257-135.046 0-244.257-110.385-244.257-244.257 0-84.55 42.275-158.532 108.037-203.156-139.743-55.193-237.211-189.064-237.211-346.422v-130.349l15.266-10.569c82.202-56.367 214.899-89.248 356.991-89.248s274.789 32.881 356.991 89.248l15.266 10.569v130.349c0 157.358-97.468 291.229-234.862 346.422zM795.96 73.394c-71.633-42.275-183.193-66.936-301.798-66.936s-230.165 24.661-301.798 66.936v92.771c0 166.752 135.046 301.798 301.798 301.798s301.798-135.046 301.798-301.798v-92.771zM494.162 889.541c96.294 0 173.798-78.679 173.798-173.798s-77.505-174.972-173.798-174.972c-96.294 0-173.798 78.679-173.798 173.798s77.505 174.972 173.798 174.972z" />
<glyph unicode="&#xe910;" glyph-name="speech" d="M504.39 960c-239.605 0-434.572-194.295-434.572-433.132 0-238.805 194.967-433.1 434.572-433.1 21.823 0 44.222 1.792 66.781 5.312l204.375-162.905v252.725c104.091 82.812 163.449 205.079 163.449 337.969 0 238.837-194.967 433.132-434.604 433.132zM724.54 230.433l-12.991-9.6v-151.801l-123.194 98.14-14.399-2.72c-23.615-4.48-47.006-6.72-69.565-6.72-204.343 0-370.575 165.592-370.575 369.103 0 203.575 166.232 369.167 370.575 369.167 204.375 0 370.607-165.592 370.607-369.135 0-117.787-54.845-225.846-150.457-296.435z" />
<glyph unicode="&#xe911;" glyph-name="zorro" d="M924.971 960l-586.029-941.176h189.706c89.706 0 152.451 5.637 188.235 16.912 58.334 17.647 108.578 50.122 150.735 97.426s71.323 110.661 87.5 190.074h28.676l-40.441-360.294h-913.235l586.765 942.647h-147.794c-57.353 0-95.098-1.716-113.235-5.147-34.314-6.373-66.544-18.995-96.691-37.868s-55.147-43.995-75-75.368c-19.853-31.373-35.417-71.078-46.691-119.118h-27.206l27.206 291.912h787.5z" />
<glyph unicode="&#xe912;" glyph-name="form-arrow" d="M1033.513 632.053l-59.894 58.955-462.559-502.993-460.681 502.993-59.894-58.955 521.513-553.313z" />
<glyph unicode="&#xe913;" glyph-name="form-calendar" d="M853.316 550.4c0.011 78.846 0.017 136.395 0.017 136.395 0 0.024-40.778 0.044-102.4 0.062v-33.956c0-18.907-15.151-34.233-34.133-34.233-18.851 0-34.133 15.31-34.133 34.233v33.973c-104.256 0.022-237.108 0.037-341.333 0.047v-34.020c0-18.907-15.151-34.233-34.133-34.233-18.851 0-34.133 15.31-34.133 34.233v34.026c-61.527 0.005-102.231 0.008-102.231 0.008-0.035 0-0.065-57.616-0.089-136.533h682.569zM853.306 482.133h-682.578c-0.041-166.977-0.061-375.328-0.061-375.328 0-0.097 682.498-0.138 682.498-0.138 0.066 0 0.114 208.466 0.141 375.467zM750.933 755.2h102.231c37.796 0 68.436-30.571 68.436-68.405v-579.99c0-37.779-30.618-68.405-68.436-68.405h-682.329c-37.796 0-68.436 30.571-68.436 68.405v579.99c0 37.779 30.618 68.405 68.436 68.405h102.231v68.167c0 18.907 15.151 34.233 34.133 34.233 18.851 0 34.133-15.31 34.133-34.233v-68.167h341.333v68.167c0 18.907 15.151 34.233 34.133 34.233 18.851 0 34.133-15.31 34.133-34.233v-68.167z" />
<glyph unicode="&#xe914;" glyph-name="form-mail" d="M938.057 806.4h-903.314c-19.188 0-34.743-15.555-34.743-34.743v-625.371c0-19.188 15.555-34.743 34.743-34.743h903.314c19.188 0 34.743 15.555 34.743 34.743v625.371c0 19.188-15.555 34.743-34.743 34.743zM881.079 736.914l-394.679-303.583-394.679 303.583h789.358zM69.486 181.029v485.323l395.756-304.417c12.479-9.581 29.838-9.581 42.317 0l395.756 304.417v-485.323h-833.829z" />
<glyph unicode="&#xe915;" glyph-name="form-number" d="M120.913 697.169h71.728v-478.185h-86.757v349.759l-105.884-101.785v112.715l120.913 117.497zM397.577 297.542h222.015v-78.559h-336.779v82.658l162.583 153.019c56.699 53.284 76.51 76.51 76.51 110.666s-25.959 60.115-63.53 60.115h-6.831c-40.987 0-71.728-28.691-73.094-77.876h-90.855c0 97.686 71.045 156.435 166.682 156.435s158.484-56.699 158.484-135.258c0-61.481-28.691-99.736-90.855-157.118l-124.328-114.081zM851.853 212.152c-100.419 0-169.414 52.6-169.414 138.674h90.855c3.416-34.839 29.374-60.115 75.143-60.115h6.831c54.65 0 77.193 34.156 77.193 64.897 0 40.987-34.839 62.847-84.707 62.847h-32.107v78.559h28.691c51.917 0 85.39 25.959 85.39 66.946 0 34.156-30.057 61.481-71.045 61.481h-6.831c-35.522 0-66.263-22.543-69.678-61.481h-90.855c0 81.975 70.362 140.040 163.949 140.040 102.468 0 165.316-61.481 165.316-133.209 0-54.65-33.473-97.003-84.024-110.666 50.551-13.662 87.44-56.699 87.44-111.349 0-88.806-73.094-136.624-172.147-136.624z" />
<glyph unicode="&#xe916;" glyph-name="form-phone" d="M428.255 655.941l-100.163 174.756c-11.401 19.948-34.284 30.366-56.815 25.866l-85.141-16.882c-25.352-4.803-46.43-22.35-55.752-46.41-69.168-179.996-7.249-409.642 154.111-571.483l1.314-1.314c161.825-161.338 391.481-223.262 571.465-154.086 24.062 9.322 41.609 30.401 46.413 55.754l16.885 85.143c4.478 22.528-5.936 45.398-25.868 56.811l-174.765 100.168c-20.929 11.955-47.264 8.464-64.355-8.531l-15.959-15.933c-25.863-25.812-60.382-60.268-77.039-76.874-54.2 19.488-103.358 50.844-143.88 91.775-40.923 40.533-72.278 89.694-91.773 143.893 20.381 20.43 67.599 67.736 92.811 92.985 16.988 17.098 20.471 43.434 8.512 64.361zM369.184 638.501l-55.974-56.085c-47.755-47.854-55.946-56.954-51.764-69.49 20.499-64.671 70.97-148.569 119.199-196.281 47.65-48.166 128.728-100.426 193.301-120.937 12.778-4.259 22.115 5.077 61.017 43.894l64.81 64.675c2.479 2.456 6.293 2.956 9.32 1.22l147.909-75.197c2.905-1.653 4.422-4.984 3.763-8.261l-10.396-76.925c-1.828-9.717-8.468-17.84-17.628-21.562-159.392-61.265-358.212-10.983-503.751 134.121l-1.23 1.232c-145.122 145.557-207.54 344.378-146.28 503.781 3.722 9.159 11.844 15.798 21.56 17.625l72.992 16.461c3.272 0.645 6.591-0.865 8.254-3.756l86.109-145.176c1.739-3.031 1.244-6.85-1.211-9.337z" />
<glyph unicode="&#xe917;" glyph-name="form-upload" d="M909.506 373.304l63.294 0.959-2.877-363.461h-915.846l-2.877 363.461h62.335v-301.126h795.971v300.167zM253.549 523.868l-42.196 46.032 299.208 287.7 309.757-287.7-42.196-46.032-233.996 220.57v-558.139h-63.294v556.221l-227.283-218.652z" />
<glyph unicode="&#xe918;" glyph-name="tripadvisor" d="M512-64c282.77 0 512 229.23 512 512s-229.23 512-512 512c-282.77 0-512-229.23-512-512s229.23-512 512-512zM615.876 695.645c23.006-3.263 45.535-9.060 67.788-15.922 38.861-12.004 75.532-28.681 110.019-50.315 2.4-1.493 5.603-2.441 8.43-2.441 40.517-0.168 81.009-0.109 121.476-0.143 3.261 0 6.506-0.344 9.759-0.528 0-0.797 0.117-1.132-0.017-1.309-1.89-2.928-3.805-5.797-5.703-8.707-13.748-21.148-25.489-43.252-32.414-67.697-0.761-2.617-0.912-4.824 0.861-7.399 36.060-51.943 47.567-108.969 32.497-170.442-13.213-53.914-44.021-95.95-90.827-125.705-33.459-21.282-70.422-31.416-109.919-31.634-16.583-0.101-33.099 2.139-49.306 6.35-39.497 10.285-73.349 30.023-101.238 59.937-3.671 3.926-7.142 8.028-11.064 12.457-14.752-22.054-29.269-43.747-44.13-66.002-14.81 22.197-29.127 43.68-43.411 65.080-0.987-0.52-1.271-0.579-1.463-0.763-0.326-0.268-0.602-0.596-0.87-0.906-33.735-39.972-76.184-64.476-127.907-72.671-28.759-4.572-57.259-2.928-85.199 4.798-39.597 10.914-73.249 31.869-100.436 62.781-26.577 30.233-43.093 65.331-49.306 105.245-7.1 37.237 1.555 73.158 3.705 81.874 6.255 25.334 17.16 48.596 32.129 69.987 1.054 1.518 1.422 4.203 0.92 6.015-6.105 22.457-16.625 42.883-28.943 62.445-3.128 4.974-6.874 9.58-10.336 14.353v1.661c0.694-0.092 1.38-0.218 2.057-0.218 41.445-0.017 82.882-0.034 124.328 0.050 1.806 0 3.813 0.747 5.352 1.736 29.119 18.74 60.144 33.588 92.742 45.148 23.516 8.322 47.508 14.823 71.986 19.571 23.7 4.597 47.525 7.843 71.601 9.429 58.714 4.505 105.629-1.728 136.838-6.115zM563.919 421.074c0-91.294 73.842-165.87 164.527-165.517 91.028 0.327 164.535 72.814 164.469 165.115-0.067 95.119-76.987 166.625-167.998 164.779-89.848-1.887-160.179-74.534-160.998-164.377zM317.128 586.063c-88.527 0.772-165.715-73.342-164.168-167.749 1.438-88.031 73.775-162.674 166.016-161.877 90.183 0.78 162.671 74.643 162.838 164.1 0.134 91.907-73.24 165.526-164.686 165.526zM325.29 629.131c50-3.062 93.938-20.544 131.051-54.401 37.038-33.79 58.739-75.943 66.625-125.512 8.12 48.982 29.244 90.732 65.588 124.195 36.411 33.488 79.746 51.062 128.936 54.778-58.363 26.030-119.921 37.086-183.268 38.311-72.011 1.418-142.048-9.228-208.933-37.372zM728.111 525.228c56.323 0.101 101.941-45.425 101.941-101.864 0-56.657-44.841-100.463-97.743-102.476-59.082-2.273-106.356 44.938-106.34 102.225 0.050 57.932 47.659 103.072 102.142 102.116zM794.544 423.113c-0.025 36.835-29.713 66.757-66.165 66.757-36.879 0-66.901-29.771-67.060-66.489-0.134-36.558 30.047-66.975 66.575-67.076 36.603-0.143 66.667 30.048 66.65 66.808zM314.954 525.228c56.289 0.059 101.974-45.542 101.841-101.965-0.167-57.127-45.050-99.96-97.024-102.334-59.316-2.726-107.176 44.703-107.067 102.292 0.117 58.343 48.052 102.98 102.25 102.007zM381.312 423.339c-0.117 37.053-29.98 66.59-67.269 66.522-35.976-0.067-66.107-30.518-66.032-66.732 0.092-36.633 30.198-66.757 66.834-66.858 36.419-0.084 66.558 30.334 66.466 67.068zM728.162 457.011c18.665 0.017 33.969-15.343 33.794-33.957-0.176-18.656-15.228-33.773-33.584-33.781-18.908 0-34.095 14.982-34.053 33.546 0.033 19.26 14.794 34.176 33.844 34.192zM314.778 457.313c18.95 0.017 34.178-15.167 34.253-34.117 0.075-18.782-15.295-34.209-34.153-34.259-19.309-0.042-34.203 14.923-34.187 34.402 0 19.109 14.86 33.949 34.086 33.974z" />
<glyph unicode="&#xe919;" glyph-name="twitter" d="M512-64c-282.77 0-512 229.23-512 512s229.23 512 512 512c282.77 0 512-229.23 512-512s-229.23-512-512-512zM583.12 647.969c-44.702-16.27-72.954-58.211-69.735-104.129l1.073-17.716-17.881 2.169c-65.086 8.316-121.947 36.517-170.226 83.882l-23.603 23.501-6.079-17.355c-12.874-38.687-4.649-79.543 22.172-107.021 14.305-15.185 11.086-17.355-13.589-8.316-8.583 2.892-16.093 5.062-16.808 3.977-2.503-2.531 6.079-35.433 12.874-48.449 9.298-18.078 28.252-35.794 48.993-46.279l17.523-8.316-20.742-0.362c-20.027 0-20.742-0.362-18.596-7.954 7.152-23.501 35.404-48.449 66.874-59.296l22.172-7.593-19.311-11.57c-28.609-16.632-62.225-26.032-95.841-26.755-16.093-0.362-29.325-1.808-29.325-2.892 0-3.616 43.629-23.863 69.020-31.817 76.172-23.501 166.649-13.378 234.597 26.755 48.278 28.563 96.556 85.328 119.086 140.285 12.159 29.286 24.318 82.797 24.318 108.467 0 16.632 1.073 18.801 21.099 38.687 11.801 11.57 22.887 24.224 25.033 27.84 3.576 6.87 3.219 6.87-15.020 0.723-30.397-10.847-34.689-9.401-19.669 6.87 11.086 11.57 24.318 32.54 24.318 38.687 0 1.085-5.364-0.723-11.444-3.977-6.437-3.616-20.742-9.039-31.47-12.293l-19.311-6.146-17.523 11.931c-9.656 6.508-23.245 13.739-30.397 15.909-18.238 5.062-46.133 4.339-62.583-1.446z" />
<glyph unicode="&#xe91a;" glyph-name="whatsapp" d="M512-64c-282.77 0-512 229.23-512 512s229.23 512 512 512c282.77 0 512-229.23 512-512s-229.23-512-512-512zM819.2 455.904c0 165.285-135.013 299.256-301.6 299.296-166.607 0-301.6-133.991-301.62-299.276 0-56.497 15.807-109.429 43.255-154.507l-54.434-160.617 166.988 53.031c43.235-23.681 92.9-37.204 145.771-37.204 166.607 0 301.64 133.991 301.64 299.276zM520.064 706.695c138.205 0 250.67-112.433 250.63-250.591 0-138.217-112.445-250.63-250.63-250.63-50.886 0-98.268 15.247-137.868 41.429l-96.268-30.832 31.284 93.056c-29.997 41.309-47.738 92.078-47.738 146.918 0 138.217 112.405 250.65 250.591 250.65zM688.683 390.263c-2.027 2.993-7.33 4.817-15.264 8.464-7.912 3.647-47.085 21.19-54.35 23.568-7.33 2.438-12.634 3.667-17.937-3.608-5.239-7.275-20.503-23.608-25.181-28.484-4.635-4.856-9.27-5.471-17.226-1.883-7.955 3.687-33.61 11.298-64.009 36.016-23.65 19.267-39.625 42.994-44.239 50.268-4.678 7.255-0.474 11.18 3.471 14.787 3.557 3.271 7.955 8.484 11.944 12.745 3.988 4.222 5.304 7.215 7.955 12.071 2.609 4.856 1.294 9.078-0.668 12.745-1.983 3.647-17.872 39.327-24.534 53.856-6.619 14.51-13.237 12.111-17.894 12.111-4.635 0-9.939 0.595-15.242 0.595s-13.927-1.764-21.192-9.039c-7.265-7.275-27.833-24.817-27.833-60.536 0-35.759 28.479-70.229 32.468-75.065 4.010-4.817 55.062-80.516 135.929-109.575 80.911-29.039 80.911-19.346 95.485-18.117 14.617 1.229 47.085 17.542 53.682 34.47 6.64 17.007 6.64 31.576 4.635 34.609z" />
<glyph unicode="&#xe91b;" glyph-name="youtube" d="M512-64c-282.77 0-512 229.23-512 512s229.23 512 512 512c282.77 0 512-229.23 512-512s-229.23-512-512-512zM511.788 686.933c0 0-213.361 0-266.912-13.915-28.673-8.011-52.283-31.622-60.295-60.716-13.915-53.551-13.915-164.45-13.915-164.45s0-111.32 13.915-164.028c8.012-29.094 31.2-52.283 60.295-60.295 53.973-14.336 266.912-14.337 266.912-14.337s213.784 0 267.334 13.915c29.095 8.012 52.283 30.779 59.873 60.295 14.337 53.13 14.337 164.028 14.337 164.028s0.421 111.321-14.337 164.872c-7.59 29.095-30.778 52.283-59.873 59.873-53.55 14.758-267.334 14.759-267.334 14.759zM409.767 584.447l245.788-141.864-245.788-141.28v283.144z" />
<glyph unicode="&#xe91c;" glyph-name="facebook" d="M512-64c282.77 0 512 229.23 512 512s-229.23 512-512 512c-282.77 0-512-229.23-512-512s229.23-512 512-512zM439.726 169.478v278.544h-57.497v95.992h57.497v57.633c0 78.31 32.466 124.876 124.708 124.876h76.793v-96.002h-48.001c-35.907 0-38.282-13.415-38.282-38.451l-0.13-48.045h86.958l-10.175-95.992h-76.782v-278.555h-115.087z" />
<glyph unicode="&#xe91d;" glyph-name="instergram" d="M512-64c282.77 0 512 229.23 512 512s-229.23 512-512 512c-282.77 0-512-229.23-512-512s229.23-512 512-512zM720.308 187.648h-416.615c-1.108 0.178-2.223 0.394-3.331 0.528-22.905 2.944-42.16 20.43-47.26 42.986-0.595 2.632-0.974 5.301-1.45 7.947v417.76c0.171 0.974 0.372 1.94 0.506 2.914 3.286 23.374 20.355 41.952 43.424 47.208 2.483 0.565 5.018 0.907 7.538 1.36h417.76c0.966-0.171 1.926-0.387 2.907-0.513 23.634-3.234 42.881-21.344 47.439-44.681 0.446-2.275 0.758-4.565 1.123-6.847v-416.622c-0.379-2.32-0.706-4.669-1.152-6.981-4.156-21.389-21.53-39.127-42.792-43.64-2.676-0.58-5.39-0.959-8.096-1.42zM307.982 497.223v-1.405c0-77.057-0.007-154.115 0.007-231.172 0-11.085 9.598-20.616 20.682-20.616 122.191-0.007 244.375-0.007 366.567 0 11.189 0 20.734 9.516 20.734 20.682 0.007 76.968 0 153.929 0 230.889v1.598h-49.706c7.018-22.43 9.174-45.246 6.423-68.5-2.766-23.262-10.259-44.911-22.467-64.902-12.215-20.013-28.050-36.592-47.439-49.788-50.256-34.228-116.422-37.239-169.749-7.308-26.957 15.114-48.123 36.191-62.88 63.348-22.013 40.525-25.53 83.057-12.616 127.187-16.489-0.015-32.912-0.015-49.558-0.015zM512.004 553.516c-57.75 0.037-104.698-46.428-105.509-103.918-0.833-59.036 46.428-105.836 103.085-107.055 58.955-1.264 106.639 45.84 107.88 103.13 1.271 59.081-46.383 107.88-105.457 107.843zM670.23 574.667v0.097c8.564 0 17.159-0.164 25.73 0.045 11.025 0.275 20.006 9.724 20.006 20.764 0.007 16.437 0.007 32.882 0 49.32 0 11.791-9.33 21.173-21.106 21.181-16.393 0.007-32.786 0.015-49.186 0-11.746-0.015-21.106-9.419-21.114-21.21-0.007-16.296-0.052-32.592 0.059-48.896 0.015-2.431 0.476-4.959 1.249-7.263 2.944-8.676 10.891-13.999 20.623-14.044 7.91-0.015 15.82 0.007 23.738 0.007z" />
</font>
</defs>
</svg>
